The Jungle Book (2016) 720p HDTC Dual Audio (Hindi-english)

seeders: 49
leechers: 2
updated:
Added by 4bh1j in TV
Torrent verified.

The Jungle Book (2016) 720p HDTC Dual Audio (Hindi-english) (Size: 1.76 GiB )
The Jungle Book (2016) 720p HDRip Dual Audio (Hindi cleaned - English) MSU.mkv1.76 GiB

Description

General
File size : 1.76 GiB
Duratio : 1h 45mn
Overall bit rate : 2 390 Kbps
Movie name : The Jungle Book (2016) 720p HDRip Dual Audio (Hindi cleaned - English) MSU

Video
Format : AVC
Format/Info : Advanced Video Codec
Format profile : [email protected]
Format settings, CABAC : Yes
Format settings, ReFrames : 4 frames
Codec ID : V_MPEG4/ISO/AVC
Duration : 1h 45mn
Bit rate : 2 075 Kbps
Width : 1 264 pixels
Height : 688 pixels
Display aspect ratio : 1.85:1
Frame rate mode : Constant
Frame rate : 23.976 (24000/1001) fps
Color space : YUV
Chroma subsampling : 4:2:0
Bit depth : 8 bits
Scan type : Progressive
Bits/(Pixel*Frame) : 0.100
Stream size : 1.53 GiB (87%)
Default : Yes
Forced : No

Audio#1
Format : MPEG Audio
Format version : Version 1
Format profile : Layer 3
Mode : Joint stereo
Mode extension : MS Stereo
Codec ID : A_MPEG/L3
Codec ID/Hint : MP3
Duration : 1h 45mn
Bit rate mode : Constant
Bit rate : 192 Kbps
Channel(s) : 2 channels
Sampling rate : 44.1 KHz
Frame rate : 38.276 fps (1152 spf)
Compression mode : Lossy
Delay relative to video : 25ms
Stream size : 144 MiB (8%)
Title : English MP3 192 Kbps [IamBidyuT]
Language : English
Default : No
Forced : No

Audio #2
Format : AAC
Format/Info : Advanced Audio Codec
Format profile : HE-AAC / LC
Codec ID : A_AAC
Duration : 1h 45mn
Bit rate : 119 Kbps
Channel(s) : 2 channels
Channel positions : Front: L R
Sampling rate : 44.1 KHz / 22.05 KHz
Frame rate : 21.533 fps (1024 spf)
Compression mode : Lossy
Delay relative to video : 211ms
Stream size : 90.0 MiB (5%)
Title : Hindi AAC 119 Kbps [IamBidyuT]
Language : Hindi
Default : Yes
Forced : Yes

Sharing Widget


Download torrent
1.76 GiB 
seeders:49
leechers:2
The Jungle Book (2016) 720p HDTC Dual Audio (Hindi-english)



To share this torrent use the code below and insert it into comments, status messages, forum posts or your signature.

Torrent: The Jungle Book (2016) 720p HDTC Dual Audio (Hindi-english)

Trackers

tracker name
udp://tracker.coppersurfer.tk:6969/announce
udp://9.rarbg.me:2710/announce
udp://p4p.arenabg.ch:1337/announce
udp://tracker.leechers-paradise.org:6969/announce
udp://eddie4.nl:6969/announce
udp://thetracker.org:80/announce
udp://tracker.coppersurfer.tk:6969
udp://explodie.org:6969/announce
udp://tracker.aletorrenty.pl:2710/announce
udp://9.rarbg.to:2710/announce
udp://torrent.gresille.org:80/announce
udp://tracker.opentrackr.org:1337/announce
udp://tracker.piratepublic.com:1337/announce
udp://tracker.sktorrent.net:6969/announce
udp://zer0day.ch:1337/announce
??Torrent compatible trackers list

Locations

name
KickassTorrents
Torrent hash: 65F79F15D1BB4564132A831B1E43D9EB84E70126

All Comments

audio
0/10
video
0/10
please, leave only comments related to that torrent
Sign In

catgyrl
Gave up after the first minute or so to hunt for something better. In high action sequences, pixelates in VLC, and picture looks somewhat overexposed. Most annoying thing: seems to start a few seconds into the film, rather than at the very beginning. Watchable enough if you're not a stickler for high resolution. A:9/V:7
Report a bug Open chat